<?xml version="1.0" standalone="no"?>
<!DOCTYPE svg PUBLIC "-//W3C//DTD SVG 1.1//EN" "http://www.w3.org/Graphics/SVG/1.1/DTD/svg11.dtd" >
<svg xmlns="http://www.w3.org/2000/svg">
<metadata>Generated by IcoMoon</metadata>
<defs>
<font id="custom-icons" horiz-adv-x="512">
<font-face units-per-em="512" ascent="480" descent="-32" />
<missing-glyph horiz-adv-x="512" />
<glyph unicode="&#x20;" d="" horiz-adv-x="256" />
<glyph unicode="&#xe01b;" d="M219.418 373.224h-65.286c-7.714 0-13.989-6.276-13.989-13.988v-55.961c0-2.574 2.089-4.663 4.662-4.663s4.662 2.089 4.662 4.663v55.961c0 2.574 2.098 4.662 4.662 4.662h65.286c2.574 0 4.662 2.089 4.662 4.662s-2.089 4.663-4.662 4.663zM517.867 373.224h-65.286c-2.574 0-4.663-2.090-4.663-4.662s2.090-4.663 4.663-4.663h65.286c2.566 0 4.663-2.089 4.663-4.663v-55.96c0-2.574 2.089-4.662 4.663-4.662s4.663 2.089 4.663 4.662v55.96c0 7.713-6.277 13.989-13.989 13.989zM527.193 149.388c-2.574 0-4.663-2.089-4.663-4.663v-55.959c0-2.574-2.098-4.663-4.663-4.663h-65.286c-2.574 0-4.663-2.090-4.663-4.663s2.090-4.663 4.663-4.663h65.286c7.713 0 13.989 6.276 13.989 13.989v55.961c0 2.574-2.089 4.663-4.663 4.663zM144.806 149.388c-2.574 0-4.662-2.089-4.662-4.663v-55.959c0-7.714 6.276-13.988 13.989-13.988h65.285c2.574 0 4.662 2.090 4.662 4.663s-2.089 4.663-4.662 4.663h-65.286c-2.565 0-4.662 2.090-4.662 4.663v55.959c0 2.574-2.089 4.663-4.662 4.663zM359.316 196.020c2.575 0 4.663 2.090 4.663 4.663v46.632c0 2.575-2.090 4.662-4.663 4.662h-46.632c-2.574 0-4.663-2.089-4.663-4.662v-46.632c0-2.574 2.090-4.663 4.663-4.663h46.632zM317.346 242.654h37.305v-37.305h-37.305v37.305z" horiz-adv-x="672" />
<glyph unicode="&#xe810;" d="M256 422.656c105.984 0 191.488-86.016 192-191.488l54.784 52.224 9.216-9.216-70.144-67.584-67.072 67.584 9.216 9.216 51.2-52.224c-0.512 98.304-80.384 178.688-179.2 178.688s-179.2-80.384-179.2-179.2 80.384-179.2 179.2-179.2c78.848 0 145.408 50.688 169.472 121.344l12.288-3.584c-25.6-75.776-97.28-131.072-181.76-131.072-105.984 0-192 86.528-192 192.512s86.016 192 192 192z" />
<glyph unicode="&#xe821;" d="M176.094 462.793c-77.27 0-160.126-61.444-160.126-160.126 0-48.876 19.55-89.839 56.789-121.026 0.466-0.466 0.931-0.931 1.397-1.397 27.463-29.791 28.86-35.377 28.86-48.876 0.466-5.12 0.466-6.517 0-7.448v-3.259c0-6.517-0.466-17.223 13.034-21.413l117.768-26.067c0.931 0 1.397 0 1.862 0 3.258 0 6.052 2.327 6.982 5.586 0.931 3.724-1.397 7.913-5.586 8.844l-117.302 25.601c-1.862 0.466-2.328 0.466-1.862 6.983v2.793c0 0 0 1.397 0 8.844-0.466 18.154-4.655 27.464-33.515 59.117-0.931 0.466-1.397 0.931-2.328 1.397-33.98 29.325-51.669 66.099-51.669 110.32 0 89.839 75.409 145.231 145.696 145.231 71.219 0 145.231-54.462 145.231-145.231 0-58.185-27.929-89.839-51.204-109.855-0.466-0.466-1.397-0.931-1.862-1.862-29.791-31.653-33.981-40.962-33.981-59.117 0-0.466 0-0.931 0-1.397v-0.931c0-0.931-0.465-1.397-0.465-1.862-0.465 0-1.397 0.466-1.397 0.466l-60.978 14.43c-4.19 0.931-7.913-1.862-8.844-5.586s1.397-7.913 5.586-8.844l60.047-13.964c0.931-0.466 7.913-2.793 13.964 1.397 2.793 1.862 6.052 5.586 6.517 12.568v0.931c0 0.466 0 0.931 0 1.397 0 0 0 0.466 0 0.466v0.466c0.465 13.034 1.862 19.085 29.325 48.876 0 0 0 0.466 0.466 0.466 38.635 32.584 57.72 72.615 57.72 121.957 0 100.079-81.46 160.127-160.126 160.127zM234.279 33.617c3.258 0 6.052 1.862 6.982 5.586s-1.397 7.913-5.586 8.378l-116.371 26.533c-3.724 0.931-7.913-1.397-8.379-5.586-0.931-3.724 1.397-7.448 5.121-8.378l116.371-26.532c0.931 0 1.397 0 1.862 0zM126.752 32.686c-4.189 0.931-7.913-1.862-8.844-5.586s1.862-7.913 5.586-8.844l94.494-20.947c0.465 0 0.931-0.466 1.862-0.466 3.258 0 6.052 2.327 6.982 6.051s-1.862 7.447-5.586 8.378l-94.493 21.413z" horiz-adv-x="352" />
<glyph unicode="&#xe854;" d="M129.507 59.103c1.585 0 3.7 0.529 5.285 1.586l253.688 158.555c3.171 2.114 5.285 5.285 5.285 8.985s-2.114 6.87-5.285 8.985l-253.688 158.555c-3.171 2.114-7.399 2.114-10.57 0.529-3.171-2.114-5.285-5.814-5.285-9.514v-317.11c0-3.7 2.114-7.399 5.285-8.985 1.585-1.057 3.171-1.586 5.285-1.586zM140.077 367.757l223.034-139.529-223.034-139.529v279.057z" />
<glyph unicode="&#xe855;" d="M214.247 389.425c0 5.814-4.756 10.57-10.571 10.57h-79.806c-5.814 0-10.57-4.756-10.57-10.57v-317.11c0-6.342 4.757-10.57 10.57-10.57h79.806c5.814 0 10.571 4.228 10.571 10.57v317.11zM193.107 82.886h-58.666v295.969h58.666v-295.969zM356.418 399.996h-79.278c-6.342 0-10.57-4.756-10.57-10.57v-317.11c0-6.342 4.228-10.57 10.57-10.57h79.278c5.813 0 10.57 4.228 10.57 10.57v317.11c0 5.814-4.757 10.57-10.57 10.57zM345.848 82.886h-58.137v295.969h58.137v-295.969z" />
<glyph unicode="&#xe883;" d="M256 464.49c-70.153 0-127.813-57.66-127.813-127.813v-225.355c0-70.153 57.66-127.813 127.813-127.813 70.634 0 127.813 57.66 127.813 127.813v225.355c0 70.153-57.18 127.813-127.813 127.813zM368.437 111.322c0-61.985-50.452-112.437-112.437-112.437s-112.437 50.452-112.437 112.437v225.355c0 61.984 50.452 112.437 112.437 112.437s112.437-50.452 112.437-112.437zM248.312 389.052h15.376v-60.063h-15.376z" />
<glyph unicode="&#xe890;" d="M366.75 230.274l-145.666 145.12-13.094-13.094 138.573-138.028-139.665-138.573 14.185-13.094 145.666 145.12z" />
<glyph unicode="&#xe893;" d="M291.462 383.919l-146.212-145.12v-12.548l146.212-145.12 12.548 13.094-138.573 138.573 138.573 138.028z" />
<glyph unicode="&#xe894;" d="M256 2.729l-99.464 99.464-11.052-12.493 104.749-106.19h10.571l105.229 106.19-10.571 11.532zM251.195 464.49l-105.71-106.19 11.052-11.532 99.463 99.463 100.424-99.463 10.571 11.532-105.23 106.19zM301.167 224.24c0 24.986-20.661 44.687-45.167 44.687-25.466 0-45.167-19.701-45.167-44.687 0-24.505 19.701-45.167 45.167-45.167 24.506 0 45.167 20.661 45.167 45.167zM226.209 224.24c0 16.817 12.974 29.791 29.791 29.791 15.856 0 30.272-12.974 30.272-29.791 0-16.337-14.415-30.272-30.272-30.272-16.817 0-29.791 13.935-29.791 30.272zM378.047 323.703l100.424-99.463-100.424-99.464 12.012-11.532 106.19 105.23v11.052l-106.19 105.23zM132.992 324.665l-11.052 10.091-106.191-105.23v-10.090l106.191-105.229 11.052 10.571-99.463 100.424z" />
<glyph unicode="&#xe8bd;" d="M189.952 290.048c-3.072-3.072-8.704-3.072-11.776 0l-74.24 67.072v-285.184c0-4.096-4.096-7.68-7.68-7.68s-8.192 3.584-8.192 7.68v285.184l-74.24-67.072c-2.56-3.072-8.704-3.072-11.776 0s-3.072 9.216 0 11.776c0 0 87.040 79.36 88.064 80.384s3.072 2.048 6.144 2.048 4.608-1.024 5.632-2.048 88.064-80.384 88.064-80.384c2.048-2.048 2.048-3.584 2.048-5.632s0-4.096-2.048-6.144z" horiz-adv-x="192" />
<glyph unicode="&#xe8be;" d="M225.792 129.792c-2.56 3.072-2.56 9.216 0 12.288l67.072 73.728h-284.672c-4.096 0-8.192 4.096-8.192 8.192s4.096 8.192 8.192 8.192h284.672l-67.072 73.728c-2.56 3.072-2.56 9.216 0 12.288s9.216 3.072 12.288 0c0 0 78.848-87.040 79.872-88.064s2.048-3.072 2.048-6.144-1.024-5.12-2.048-6.144-79.872-88.064-79.872-88.064c-2.048-1.536-4.096-1.536-6.144-1.536s-4.096 0-6.144 1.536z" horiz-adv-x="320" />
<glyph unicode="&#xe8d0;" d="M189.952 157.952c2.048-2.048 2.048-4.096 2.048-6.144s0-3.584-2.048-5.632c0 0-87.040-79.36-88.064-80.384s-3.072-1.536-5.632-1.536-5.12 1.024-6.144 1.536-88.064 80.384-88.064 80.384c-3.072 3.072-3.072 8.704 0 11.776s9.216 3.072 11.776 0l74.24-67.072v285.184c0 4.096 4.096 8.192 8.192 8.192s7.68-4.096 7.68-8.192v-285.184l74.24 67.072c3.072 3.072 8.704 3.072 11.776 0z" horiz-adv-x="192" />
<glyph unicode="&#xe8d1;" d="M94.208 129.792c-2.048-1.536-4.096-1.536-6.144-1.536s-4.096 0-6.144 1.536c0 0-78.848 87.040-79.872 88.064s-2.048 3.072-2.048 6.144 1.024 5.12 2.048 6.144 79.872 88.064 79.872 88.064c3.072 3.072 9.216 3.072 12.288 0s3.072-9.216 0-12.288l-67.072-73.728h284.672c4.096 0 8.192-4.096 8.192-8.192s-4.096-8.192-8.192-8.192h-284.672l67.072-73.728c3.072-3.072 3.072-9.216 0-12.288z" horiz-adv-x="320" />
<glyph unicode="&#xe8d3;" d="M449.505 164.964c2.459-2.459 2.459-6.56 0-9.43-1.64-1.23-3.28-1.64-4.92-1.64s-3.28 0.411-4.51 1.64l-58.627 58.627-58.627-58.627c-1.23-1.23-2.87-1.64-4.51-1.64s-3.28 0.411-4.51 1.64c-2.87 2.87-2.87 6.969 0 9.43l58.216 58.627-58.216 58.626c-2.87 2.46-2.87 6.56 0 9.019 2.459 2.87 6.56 2.87 9.019 0l58.627-58.216 58.627 58.216c2.459 2.87 6.56 2.87 9.43 0 2.459-2.459 2.459-6.559 0-9.019l-58.627-58.626 58.627-58.627zM269.119 360.52v-273.040c0-7.789-1.23-13.94-4.1-18.449-3.28-5.33-8.61-8.199-14.759-8.199s-12.709 3.28-19.269 9.43l-75.434 67.645c-3.69 3.28-6.969 7.38-10.659 12.3h-55.346c-15.989 0-28.698 12.709-28.698 28.698v90.194c0 15.988 12.709 28.698 28.698 28.698h55.346c3.69 4.92 6.969 9.019 10.659 12.299l75.434 67.646c6.56 6.149 13.119 9.43 19.269 9.43 9.43 0 18.859-6.969 18.859-26.648zM256 360.52c0 2.46 0 13.119-5.33 13.119-1.64 0-5.33-0.411-11.070-5.74l-75.434-67.645c-3.28-3.28-6.56-7.38-10.249-12.709-1.23-1.64-3.28-2.87-5.33-2.87h-59.036c-8.609 0-15.579-6.969-15.579-15.578v-90.193c0-8.61 6.969-15.579 15.579-15.579h59.036c2.050 0 4.1-1.23 5.33-2.87 3.28-5.33 6.969-9.43 10.249-12.709l75.434-67.645c5.74-5.33 9.429-5.74 10.659-5.74s2.459 0 3.69 2.050c0.82 1.23 2.050 4.51 2.050 11.069v273.040z" />
<glyph unicode="&#xe8d4;" d="M250.26 386.758c-6.149 0-12.709-2.87-19.678-9.019l-75.024-67.645c-3.69-3.28-6.969-7.38-10.659-12.299h-55.346c-15.989 0-28.698-12.709-28.698-28.698v-90.193c0-15.988 12.709-28.698 28.698-28.698h55.346c3.28-4.92 6.969-9.019 10.659-12.3l75.024-67.646c6.969-6.149 13.529-9.019 19.678-9.019s11.070 2.87 14.349 7.789c3.28 4.51 4.51 10.659 4.51 18.449v273.040c0 19.269-9.839 26.238-18.859 26.238zM256 87.48c0-6.56-1.23-9.839-2.459-11.070-0.82-2.050-2.050-2.050-3.28-2.050s-4.92 0.411-10.659 5.74l-75.434 67.645c-3.28 3.28-6.969 7.38-10.249 12.709-1.23 2.050-3.28 2.87-5.33 2.87h-59.036c-8.609 0-15.579 6.969-15.579 15.579v90.193c0 8.61 6.969 15.579 15.579 15.579h59.036c2.050 0 4.1 1.23 5.33 2.87 3.28 5.33 6.969 9.429 10.249 12.709l75.434 67.646c5.74 5.33 9.429 5.74 10.659 5.74 5.33 0 5.74-10.659 5.74-13.119v-273.040zM371.202 315.833c33.617-56.576 33.617-127.090 0-183.666-1.23-2.050-3.69-3.28-5.74-3.28-1.23 0-2.459 0.411-3.28 0.82-3.28 2.050-4.51 6.149-2.459 9.019 31.568 52.476 31.568 118.072 0 170.548-2.050 3.28-0.82 6.969 2.459 9.019 2.87 2.050 6.969 0.82 9.019-2.459zM322.005 290.826c24.598-41.407 24.598-92.244 0-133.65-1.23-2.050-3.69-3.28-5.74-3.28-1.23 0-2.459 0.411-3.28 1.23-3.28 1.64-4.1 5.74-2.459 9.019 22.139 36.897 22.139 82.814 0 119.712-1.64 3.28-0.82 7.38 2.459 9.019 2.87 2.050 6.969 0.82 9.019-2.050zM408.918 78.87c-1.64-2.050-3.69-2.87-5.74-2.87-1.23 0-2.459 0.411-3.69 0.82-2.87 2.050-3.69 6.149-1.64 9.43 53.706 83.634 53.706 191.866 0 275.5-2.050 3.28-1.23 7.38 1.64 9.43 3.28 1.64 7.38 0.82 9.43-2.050 56.576-88.144 56.576-202.115 0-290.259z" />
<glyph unicode="&#xe8d5;" d="M293.247 401.417c-6.709 0-14.163-3.355-21.618-10.064l-82-73.8c-3.728-3.355-7.454-7.827-11.555-13.045h-60.381c-17.145 0-31.309-14.163-31.309-31.309v-98.399c0-17.146 14.163-31.309 31.309-31.309h60.381c3.728-5.218 7.827-9.691 11.555-13.045l82-73.8c7.454-6.709 14.909-10.064 21.618-10.064 6.336 0 11.928 2.982 15.654 8.573 2.982 5.218 4.846 11.555 4.846 19.754v298.18c0 20.873-10.809 28.327-20.5 28.327zM299.211 74.91c0-7.081-1.491-10.437-2.61-11.927-1.118-1.864-2.236-2.236-3.354-2.236-1.491 0-5.591 0.745-11.928 6.336l-82 73.8c-3.727 3.354-7.454 8.2-11.181 13.791-1.491 1.864-3.728 3.354-5.964 3.354h-64.481c-9.317 0-16.773 7.454-16.773 16.773v98.399c0 9.317 7.454 17.145 16.773 17.145h64.109c2.609 0 4.845 1.119 6.335 2.982 3.727 5.964 7.454 10.436 11.181 13.791l81.999 73.8c6.336 5.591 10.437 6.335 11.928 6.335 5.591 0 5.964-11.927 5.964-14.163v-298.179z" />
<glyph unicode="&#xe8de;" d="M415.604 72.868c2.373-2.373 2.373-6.099 0-8.471-1.017-1.017-2.711-1.695-4.406-1.695-1.356 0-3.050 0.678-4.067 1.695l-151.132 151.132-151.132-151.132c-1.016-1.017-2.711-1.695-4.067-1.695s-3.049 0.678-4.406 1.695c-2.373 2.373-2.373 6.099 0 8.471l151.132 151.132-151.132 151.132c-2.373 2.373-2.373 6.099 0 8.471s6.1 2.373 8.471 0l151.132-151.132 151.132 151.132c2.373 2.373 6.099 2.373 8.471 0s2.373-6.099 0-8.471l-151.132-151.132 151.132-151.132z" />
<glyph unicode="&#xe8e0;" d="M498.176 227.072c-56.832 76.8-135.68 165.376-242.176 165.376-88.576 0-158.208-62.464-241.664-163.328-2.56-3.072-2.56-7.168 0-10.24l6.656-8.704c69.632-82.944 129.536-154.112 235.008-154.112s184.32 93.184 236.544 154.624l5.12 6.144c2.56 3.072 2.56 7.168 0.512 10.24zM480.256 221.44c-53.248-62.976-126.464-148.992-224.256-148.992s-155.648 68.608-222.208 148.48l-2.56 3.072c80.384 96.256 143.872 151.552 224.768 151.552 96.768 0 171.008-80.384 225.28-153.088l-1.024-1.024zM256 306.432c-45.568 0-82.432-36.864-82.432-82.432s36.864-82.432 82.432-82.432c45.568 0 82.432 37.376 82.432 82.432s-36.864 82.432-82.432 82.432zM256 158.464c-36.352 0-66.048 29.184-66.048 65.536s29.696 66.048 66.048 66.048 65.536-29.696 65.536-66.048c0-36.352-29.184-65.536-65.536-65.536z" />
<glyph unicode="&#xe8f4;" d="M129.431 72.625c-1.273 0-2.544 0.318-3.499 0.954-1.908 0.954-3.18 3.18-3.18 5.724v289.393c0 2.545 1.272 4.77 3.18 5.724 2.226 1.273 4.452 1.273 6.678 0.318l253.457-145.014c1.908-0.953 3.18-3.18 3.18-5.724s-1.272-4.452-3.18-5.724l-253.458-144.697c-0.953-0.636-2.226-0.954-3.18-0.954zM135.792 357.247v-266.496l233.423 133.247-233.423 133.247z" />
<glyph unicode="&#xe8f5;" d="M216.249 72.625c-3.499 0-6.042 2.545-6.042 6.041v290.664c0 3.498 2.544 6.041 6.042 6.041 3.18 0 6.042-2.544 6.042-6.041v-290.664c0-3.498-2.862-6.041-6.042-6.041zM301.794 78.668v290.664c0 3.499-2.545 6.041-6.041 6.041-3.18 0-6.041-2.544-6.041-6.041v-290.664c0-3.498 2.861-6.041 6.041-6.041 3.498 0 6.041 2.545 6.041 6.041z" />
<glyph unicode="&#xe92f;" d="M411.997 172.404l-149.238 150.928h-13.516l-149.238-150.928 12.953-12.953 143.043 143.043 143.043-143.043z" />
<glyph unicode="&#xe930;" d="M399.043 312.069l-143.043-144.17-143.043 144.17-12.953-14.079 149.238-150.928h13.516l149.238 150.928z" />
<glyph unicode="&#xe937;" d="M355.538 383.166v-10.176h42.614l-116.075-115.439 7.632-7.315 115.439 116.075v-42.931h9.858v54.698l-5.088 5.088zM222.608 198.082l-115.757-116.393v42.932h-9.858v-54.699l5.088-5.088h54.698v10.176h-42.931l116.075 115.439zM291.937 180.591l-79.503 79.503 7.632 7.315 79.503-79.503z" />
<glyph unicode="&#xe938;" d="M106.852 366.312l95.722-96.359 7.632 7.632-96.359 95.404h42.932v10.176h-54.698l-5.088-5.088v-54.699h9.858zM156.78 64.834v10.176h-42.931l96.358 95.722-7.632 7.315-95.722-96.358v42.932h-9.859v-54.699l5.088-5.088zM405.149 81.689l-95.722 96.358-7.315-7.315 96.041-95.722h-42.614v-10.176h54.38l5.088 5.088v54.699h-9.858zM355.538 383.166v-10.176h42.614l-96.041-95.404 7.315-7.632 95.722 96.358v-42.931h9.858v54.699l-5.088 5.088z" />
</font>
</defs>
</svg>
